Ir al contenido
elmohino

FFmpeg: codificación audio/vídeo por línea comandos [uso avanzado]

Recommended Posts

Quedó el bitrate en 988 kb/seg y la calidad del vídeo empeoró bastante.

 

Trataré de usar los comandos que me indicó, pero quedará en avi. Meb hubiera gustado que quedara en el mismo contenedor MP4.

Si no me funciona tendré que seguir usando el Winavi.

 

Muchas gracias

Muy interesante sus aportes.

Saludos

 

Compartir este post


Enlace al post
Compartir en otros sitios
hace 4 minutos, ricar2374 dijo:

Quedó el bitrate en 988 kb/seg y la calidad del vídeo empeoró bastante.

 

Trataré de usar los comandos que me indicó, pero quedará en avi. Meb hubiera gustado que quedara en el mismo contenedor MP4.

Si no me funciona tendré que seguir usando el Winavi.

 

Muchas gracias

Muy interesante sus aportes.

Saludos

 

 

Puede cambiar también de contenedor a MP4 con mis comandos (otra cosa es que su TV lo acepte):

 

ffmpeg -i "[nombre_película_original]" -c:v mpeg4 -vtag xvid -qscale:v 3 -c:a copy -f mp4 "[nombre_película_resultante].mp4"

 

Puede aumentar la calidad de imagen cambiando "-qscale:v 3" por "-qscale:v 2". Tenga en cuenta que está codificando con un códec "obsoleto" y poco eficiente hoy en día.

 

Salud.

Compartir este post


Enlace al post
Compartir en otros sitios
Hace 1 hora, davidfigueiras20 dijo:

Hola como convertiria un pelicula HEVC en mkv con varias pistas de audio en dts a ac3 con el mismo formato de video?

 

Hola, buenas noches.

 

- Primero debe localizar los identificadores de las distintas pistas del archivo original:

 

           

$ ffmpeg -i "[nombre_archivo_entrada]"

 

- Lo anterior le arrojará un resultado parecido al siguiente:

 


    Stream #0:0: Video: hevc (Main), yuv420p10le, 1920x804 [SAR 1:1 DAR 160:67], 23.98 fps, 23.98 tbr, 1k tbn, 23.98 tbc (default)
    Metadata:
      title           : Video @ 9727 Kbps
    Stream #0:1(spa): Audio: dts (DTS), 48000 Hz, 5.1(side), s16, 1536 kb/s (default) (forced)
    Metadata:
      title           : Spanish (Spain)
    Stream #0:2(eng): Audio: dts (DTS), 48000 Hz, 5.1(side), s16, 1536 kb/s
    Metadata:
      title           : English (USA)
    Stream #0:3(eng): Audio: ac3, 48000 Hz, stereo, s16
    Metadata:
      title           : English commentaries (USA)
    Stream #0:4(spa): Subtitle: ssa (default) (forced)
    Metadata:
      title           : Spanish Forced
    Stream #0:5(spa): Subtitle: ssa
    Metadata:
      title           : Spanish
    Stream #0:6(eng): Subtitle: subrip
    Metadata:
      title           : English
    Stream #0:7(spa): Subtitle: subrip
    Metadata:

      title           : Spanish commentaries


- En el ejemplo mostrado se ve que la pista de vídeo tiene un identificador "0:0", la pista de audio DTS en español tiene el "0:1" y la pista DTS en inglés el identificador "0:2"

 

- Para convertir las dos pista DTS en AC3 manteniendo intacta la pista de vídeo y encapsulándolo todo en un contenedor Matroska(MKV), proceda de la siguiente manera:

 

           

$ ffmpeg -i "[nombre_archivo_entrada]" -map 0:0 -c copy -map 0:1 -c:a ac3 -b:a 640k -map 0:2 -c:a ac3 -b:a 640k "[nombre_archivo_salida].mkv"

 


Salud.

Compartir este post


Enlace al post
Compartir en otros sitios

Join the conversation

You can post now and register later. If you have an account, sign in now to post with your account.

Invitado
Responder en este tema...

×   Has incluido contenido con formato.   Eliminar formato

  Sólo se permiten 75 emoticonos como máximo.

×   Tu enlace ha sido insertado automáticamente.   Deshacer y mostrar como enlace

×   Su contenido anterior ha sido restaurado.   Limpiar editor

×   No puedes pegar imágenes directamente. Súbelas a algún hosting de imágenes y pega la dirección URL


×
×
  • Crear Nuevo...