Jump to content

elmohino

​Miembro
  • Content Count

    24
  • Joined

  • Last visited

  • Days Won

    5
  • Donations

    0.00 EUR 

elmohino last won the day on April 17 2020

elmohino had the most liked content!

About elmohino

  • Rank
    Recién llegado

Género

  • Género
    Hombre

Características del sistema

  • Distribución
    Debian
  • Entorno gráfico
    Gnome
  • Navegador Web
    Iceweasel
  • Distribución secundaria
    Sin_especificar
  • Entorno gráfico secundario
    Lxde
  • Navegador Web secundario
    Chromium
  1. Hay dos maneras: una sin recodificar (puede que dé problemas en algunos reproductores de vídeo) y otra recodificando (más compatible con reproductores) # SIN RECODIFICAR: Primero crear el vídeo a partir de la imagen fija con fundidos de entrada y/o salida: $ ffmpeg -loop 1 -i imagen.jpg -t 00:00:05 -vcodec libx264 -profile:v baseline -pix_fmt yuv420p -vf "fade=t=in:st=0:d=1,fade=t=out:st=4:d=1" video_imagen_fija.mp4 A continuación cambiar de contenedor MP4 a TS: $ ffmpeg -i video_imagen_fija.mp4 -c copy -bsf:v h264_mp4toannexb -f mpegts video
  2. Pruebe lo siguiente: $ ffmpeg -i entrada.mp4 -ss 00:00:00 -to 00:00:40 -vcodec libx264 -profile:v baseline -pix_fmt yuv420p -filter:v fps=25 -an -vf scale=750:416,setsar=1:1.8,fade=t=in:st=0:d=3,fade=t=out:st=37:d=3 salida.mp4 Salud.
  3. Eso a lo que Ud. se refiere no es el bitrate sino los frames per second (fps), es decir, "fotogramas por segundo", algo tampoco determinante para impedir la concatenación. Si no consigue de ninguna manera unir los tres vídeos con FFMpeg, puede usar las MKVToolNix para unirlos con éxito en un Matroska (.mkv) y, a continuación, pasar ese Matroska a MP4 con FFMpeg: $ mkvmerge -o vídeo_de_salida.mkv vídeo01.mp4 +vídeo02.mp4 +vídeo03.mp4 $ ffmpeg -i vídeo.mkv -c copy vídeo_de_salida.mp4 Salud.
  4. Gracias a usted. El bitrate no suele ser importante. Lo importante es que se asegure de que las dimensiones en píxeles sean las mismas en los tres vídeos, que sus códecs de vídeo sean los mismos, que sus códecs de audio sean los mismos, que la frecuencia en kHz del audio (-ar 44100, -ar 48000, etc.) sea la misma, que el número de canales (-ac 1, -ac 2, -ac 6, -ac 8, etc.) sean los mismos, que tengan el mismo número de audios, que tengan el mismo número de subtítulos (y que estos sean del mismo formato) y, por supuesto, que tengan el mismo contenedor. Una vez lo haya hec
  5. No conozco ese formato de subtítulo, nunca lo he usado, así que no puedo contestarle convenientemente. Solo le diré que, con los subtítulos que yo manejo, FFmpeg no cambia la velocidad de fotogramas a la hora de convertirlos. Salud.
  6. Puede Vd. probar lo siguiente: ffmpeg -ss [comienzo_del_fragmento] -to [final_del_fragmento] -i "[nombre_archivo_entrada].mkv" -vf scale=1920:1080 -c:v libx264 -pix_fmt yuv420p10le -x264-params "level=5.2:colorprim=bt2020:colormatrix=bt2020nc:transfer=smpte2084" -crf 22 -preset medium -tune film -c:a copy -sn "[nombre_archivo_salida].mp4" Salud.
  7. Hola, buenas noches. - Primero debe localizar los identificadores de las distintas pistas del archivo original: $ ffmpeg -i "[nombre_archivo_entrada]" - Lo anterior le arrojará un resultado parecido al siguiente: Stream #0:0: Video: hevc (Main), yuv420p10le, 1920x804 [SAR 1:1 DAR 160:67], 23.98 fps, 23.98 tbr, 1k tbn, 23.98 tbc (default) Metadata: title : Video @ 9727 Kbps Stream #0:1(spa): Audio: dts (DTS), 48000 Hz, 5.1(side), s16, 1536 kb/s (default) (forced) Metadata: title
  8. ACTUALIZACIÓN: - A partir de la versión 4.1.1 desaparece el binario ffmpeg-10bit. Todas sus funciones quedan integradas en el binario ffmpeg.
  9. Puede cambiar también de contenedor a MP4 con mis comandos (otra cosa es que su TV lo acepte): ffmpeg -i "[nombre_película_original]" -c:v mpeg4 -vtag xvid -qscale:v 3 -c:a copy -f mp4 "[nombre_película_resultante].mp4" Puede aumentar la calidad de imagen cambiando "-qscale:v 3" por "-qscale:v 2". Tenga en cuenta que está codificando con un códec "obsoleto" y poco eficiente hoy en día. Salud.
  10. En ese caso es necesario codificar de nuevo la pista de vídeo, con la consiguiente pérdida de calidad. Aunque use FFmpeg, el tiempo de codificado puede que sea muy parecido al de su WinAVI. No es posible cambiar de códec sin codificar. El audio sí se puede copiar sin pérdida de calidad. Así sería la línea de comandos: ffmpeg -i "[nombre_película_original]" -c:v mpeg4 -vtag xvid -qscale:v 3 -c:a copy "[nombre_película_resultante].avi" Salud.
  11. Hola, buenas noches. Por su consulta creo entender que el problema estaría en el formato del contenedor de la película: su televisor no sería 100% compatible con Matroska (MKV) pero sí con MP4. Pruebe lo siguiente para cambiar de contenedor sin perder calidad audio/vídeo: ffmpeg -i "[nombre_película_en_contenedor_matroska].mkv" -c copy -f mp4 "[nombre_película_resultante_en_contenedor_mp4].mp4" Salud.
  12. ACTUALIZACIÓN: - Codificación de 10 ó 12 bits de profundidad de color a 8 bits - Codificación de HDR a SDR (Standard Dynamic Range) - Capturar imagen fija de un vídeo con HDR
  13. ACTUALIZACIÓN: - Codificación con HDR10 - Codificación con Wave64 y Wave con perfil RF64 - Codificación con audio TrueHD (limitado a 6 canales) - Extraer audio DTS-HD, DTS:X, TrueHD, TrueHD+Atmos, E-AC3 y E-AC3+Atmos - Extraer núcleo (core) de audio DTS-HD, DTS:X, E-AC3 y E-AC3+Atmos - Eliminar entrelazado de imagen vídeo durante codificación - Actualizaciones menores
  14. Supongo que se refiere Vd. a agregar subtítulos forzados a archivos Matroska (.mkv). - Si el Matroska original contiene una sola pista de audio: ffmpeg -i "[nombre_archivo_entrada_del_Matroska].mkv" -i "[nombre_archivo_entrada_subtítulos_a_agregar].srt" -map 0:0 -map 0:1 -map 1:0 -disposition:s:0 forced -c copy "[nombre_archivo_salida].mkv" - Si el Matroska original contiene dos pistas de audio: ffmpeg -i "[nombre_archivo_entrada_del_Matroska].mkv" -i "[nombre_archivo_entrada_subtítulos_a_agregar].srt" -map 0:0 -map 0:1 -map 0:2 -ma
  15. Disculpe pero con su línea de comandos sí hay conversión, ya que FFMpeg usa una codificación automática estándar con la fuente de vídeo y con la primera pista de audio. Para cortar el archivo sin convertir debe añadir la opción -c copy. Salud.
×
×
  • Create New...